extratorrent - A Fan Made Alternative Login   |   Register
Important Information
Registrations are open now
-------------------------------------

Please click here to register with Extratorrent2 to recieve latest updates, add bookmarks and to post comments.

Friends
Friends

1) ProxyFix

Extratorrent2 > Categories > TV > Young Sheldon S01E22 Vanilla Ice Cream Gentleman Callers and a Dinette Set 1080p 5.1 - 2.0 x264 Phun Psyz torrent


Browse TV torrents

Young Sheldon S01E22 Vanilla Ice Cream Gentleman Callers and a Dinette Set 1080p 5.1 - 2.0 x264 Phun Psyz torrent


Download torrent: Download Young Sheldon S01E22 Vanilla Ice Cream Gentleman Callers and a Dinette Set 1080p 5.1 - 2.0 x264 Phun Psyz torrent Magnet link Bookmark Torrent: Young Sheldon S01E22 Vanilla Ice Cream Gentleman Callers and a Dinette Set 1080p 5.1 - 2.0 x264 Phun Psyz   Young Sheldon S01E22 Vanilla Ice Cream Gentleman Callers and a Dinette Set 1080p 5.1 - 2.0 x264 Phun Psyz torrent
Info hash: 1F62D9A712E9C555E5E83356708483CCB78854CB
Category: Categories > TV
Trackers:
View all torrent trackers >
Health:
 seeds: 9 ,  leechers: 3 |  Update >
Torrent language: English English
Total Size: 278.5 MB
Files List:
1    View torrent files >
Uploader:
PhunPsyz
Torrent added: May 13, 2018, 3:30 pm
Tags: Young, Sheldon, S01E22, 1080p, x264, Phun, Psyz
IMDB: http://www.imdb.com/title/tt7752372
Users rating: ---, not rated. please login to rate.

Download Young Sheldon S01E22 Vanilla Ice Cream Gentleman Callers and a Dinette Set 1080p 5.1 - 2.0 x264 Phun Psyz torrent



Torrent Description

www.imdb.com/title/tt7752372/?ref_=ttep_ep22

When Meemaw is pursued by two gentlemen callers, Sheldon interferes, forcing her to set some ground rules.

Source: NTb (Amzn) (1.57 GiB)



Format : MPEG-4
Format profile : Base Media / Version 2
Codec ID : mp42 (isom/iso2/avc1/mp41)
File size : 279 MiB
Duration : 20 min 2 s
Overall bit rate mode : Variable
Overall bit rate : 1 944 kb/s

Video
ID : 1
Format : AVC
Format/Info : Advanced Video Codec
Format profile :
Format settings : CABAC / 8 Ref Frames
Format settings, CABAC : Yes
Format settings, RefFrames : 8 frames
Codec ID : avc1
Codec ID/Info : Advanced Video Coding
Duration : 20 min 2 s
Bit rate : 1 457 kb/s
Width : 1 920 pixels
Height : 1 080 pixels
Display aspect ratio : 16:9
Frame rate mode : Variable
Frame rate : 23.976 (24000/1001) FPS
Minimum frame rate : 23.974 FPS
Maximum frame rate : 23.981 FPS
Color space : YUV
Chroma subsampling : 4:2:0
Bit depth : 8 bits
Scan type : Progressive
Bits/(Pixel*Frame) : 0.029
Stream size : 209 MiB (75%)
Writing library : x264 core 148 r2708 86b7198

Audio #1
ID : 2
Format : AC-3
Format/Info : Audio Coding 3
Format settings, Endianness : Big
Codec ID : ac-3
Duration : 20 min 2 s
Bit rate mode : Constant
Bit rate : 320 kb/s
Channel(s) : 6 channels
Channel positions : Front: L C R, Side: L R, LFE
Sampling rate : 48.0 kHz
Frame rate : 31.250 FPS (1536 SPF)
Bit depth : 16 bits
Compression mode : Lossy
Stream size : 45.9 MiB (16%)
Title : Surround / Surround
Language : English

Audio #2
ID : 3
Format : AAC
Format/Info : Advanced Audio Codec
Format profile : LC
Codec ID : mp4a-40-2
Duration : 20 min 2 s
Bit rate mode : Variable
Bit rate : 160 kb/s
Channel(s) : 2 channels
Channel positions : Front: L R
Sampling rate : 48.0 kHz
Frame rate : 46.875 FPS (1024 SPF)
Compression mode : Lossy
Stream size : 22.9 MiB (8%)
Title : Stereo / Stereo
Language : English

Text
Language : English
Default : Yes
Forced : No
Language : English
Default : No
Forced : No


Download Young Sheldon S01E22 Vanilla Ice Cream Gentleman Callers and a Dinette Set 1080p 5.1 - 2.0 x264 Phun Psyz torrent


Related Torrents


Comments   (please login to add your comment!)

war for the planet of the apes 2017     ideal house     diana     walking dead ita 8x12     gio231     strip     mike jones     pussy riot     konohana kitan     better photography 2017     real wife stories vol 18     snowman the     music video     rayveness alia     dance season 2     xxx blacked     the land of pain     the wolf wall street     wrld     peaky blinders     sex fantasy     red table     maze     base     


Home - Browse Torrents

Made with love by an Extratorrent Fan!